I have a the below video

#213406
david_lexicondavid_lexicon
Participant

I have a the below video format:

Format : MPEG-TS
File size : 213 MiB
Duration : 1mn 56s
Overall bit rate mode : Variable
Overall bit rate : 15.3 Mbps
Maximum Overall bit rate : 17.3 Mbps

Video
ID : 4113 (0x1011)
Menu ID : 1 (0x1)
Format : AVC
Format/Info : Advanced Video Codec
Format profile : High@L4
Format settings, CABAC : Yes
Format settings, ReFrames : 2 frames
Format settings, GOP : M=3, N=13
Codec ID : 27
Duration : 1mn 56s
Bit rate : 14.3 Mbps
Width : 1 920 pixels
Height : 1 080 pixels
Display aspect ratio : 16:9
Frame rate : 25.000 fps
Color space : YUV
Chroma subsampling : 4:2:0
Bit depth : 8 bits
Scan type : MBAFF
Scan type, store method : Interleaved fields
Scan order : Top Field First
Bits/(Pixel*Frame) : 0.276
Stream size : 199 MiB (93%)

Audio
ID : 4352 (0x1100)
Menu ID : 1 (0x1)
Format : AC-3
Format/Info : Audio Coding 3
Mode extension : CM (complete main)
Format settings, Endianness : Big
Codec ID : 129
Duration : 1mn 56s
Bit rate mode : Constant
Bit rate : 256 Kbps
Channel(s) : 2 channels
Channel positions : Front: L R
Sampling rate : 48.0 KHz
Frame rate : 31.250 fps (1536 spf)
Compression mode : Lossy
Delay relative to video : 9ms
Stream size : 3.56 MiB (2%)

to be converted to MOV high quality compression format such as h.264 in HD (1920×1080) at 25 fps interlaced (50i).

Best Products

Camera on a hand held stabilizer

Best camera stabilizers for video — 2021

A camera stabilizer lets you capture smooth shots without sacrificing freedom of movement. Here’s a look at the best handheld stabilizers available today.
homicide-bootstrap