Audio out of sync after rendering with Movie Studio Platinum 12.0

Videomaker – Learn video production and editing, camera reviews Forums Technique Editing Audio out of sync after rendering with Movie Studio Platinum 12.0

Viewing 2 reply threads
  • Author
    Posts
    • #84892
      acedakid41
      Member

      Hey guys, I don't know if this belongs here or not and I am a newbie with Movie Studio Platinum 12.0

      I have a problem with the "Audio being out of sync after rendering" This is a very common issue that I've seen on the internet, but I can't seem to find a solution for it. 

      I.'m using this program primarily for Youtube and basically I.'m uploading my videos in the format "Internet 1920×1080" ( It comes in such amazing quality)

      Here are the settings I use 

      MP4 (AVC/AAC) file for progressive internet downloads.
      Audio: 192 Kbps, 48,000 Hz, 16 Bit, Stereo, AAC
      Video: 29.970 fps, 1920×1080 Progressive, YUV, 12 Mbps
      Pixel Aspect Ratio: 1.000

      In the actual program, everything including audio is in Sync, but after rendering it to my drive and even youtube, the video is out of sync.

      People's solutions have been to move the audio in the timeline section. But that's not going to work either. Are there any ways to fix this out of sync issue? Anything to do with the preferences or options?

      Let me know if I need to give more information, thanks!

    • #211671
      BruceMol
      Participant

      There isn't one solution because there are many things that cause the problem. 

      Check to make sure your fps of your files is also 29.97. Or try a render sample in 24 just to see. Ask a friend to try one of your YouTube videos, it could be just your computer.

      Update all your drivers and codecs (easier to write than acrually do!)

      Try a different video player. On my windows computer, an MP4 that plays fine in VLC is out of syn using Quicktime. If I render as .mov all is well.

      So, keep playing!

    • #212940
      terry06
      Member

      I found this article on Google which may give you some hint. Good luck!
      http://avchd-video-solution.jimdo.com/2015/10/13/sony-movie-studio-can-t-support-mp4-files-solution/

    • #211672
      acedakid41
      Member

      Honestly, since I am still new to it I don't really know how to check or change formats. I did however found something called MediaArea and its suppose to tell you the media info. This is what came out of it. Also to get better visuals though you can check on this video, I have on there. https://www.youtube.com/watch?v=R-suumgLXiM I had a lot of people say the audio is out of sync and at times I don't see it. But this is all the info and hope it helps.

      General
      Complete name : C:UsersReckless VillenDocumentsMovie Studio Platinum 12.0 ProjectsThey Breathe – EVIL IN THE DEEP!.mp4
      Format : MPEG-4
      Format profile : Base Media / Version 2
      Codec ID : mp42
      File size : 1.94 GiB
      Duration : 23mn 14s
      Overall bit rate mode : Variable
      Overall bit rate : 11.9 Mbps
      Encoded date : UTC 2015-01-26 13:15:34
      Tagged date : UTC 2015-01-26 13:15:34

      Video
      ID : 2
      Format : AVC
      Format/Info : Advanced Video Codec
      Format profile : Main@L4.0
      Format settings, CABAC : Yes
      Format settings, ReFrames : 1 frame
      Format settings, GOP : M=1, N=24
      Codec ID : avc1
      Codec ID/Info : Advanced Video Coding
      Duration : 23mn 14s
      Source duration : 23mn 14s
      Bit rate mode : Variable
      Bit rate : 11.7 Mbps
      Maximum bit rate : 24.0 Mbps
      Width : 1 920 pixels
      Height : 1 080 pixels
      Display aspect ratio : 16:9
      Frame rate mode : Constant
      Frame rate : 29.970 fps
      Standard : NTSC
      Color space : YUV
      Chroma subsampling : 4:2:0
      Bit depth : 8 bits
      Scan type : Progressive
      Bits/(Pixel*Frame) : 0.189
      Stream size : 1.91 GiB (98%)
      Source stream size : 1.91 GiB (98%)
      Language : English
      Encoded date : UTC 2015-01-26 13:15:34
      Tagged date : UTC 2015-01-26 13:15:34
      Color range : Limited

      Audio
      ID : 1
      Format : AAC
      Format/Info : Advanced Audio Codec
      Format profile : LC
      Codec ID : 40
      Duration : 23mn 14s
      Bit rate mode : Constant
      Bit rate : 192 Kbps
      Channel(s) : channel0
      Channel(s)_Original : 2 channels
      Channel positions : Front: L R
      Sampling rate : 48.0 KHz
      Compression mode : Lossy
      Stream size : 31.9 MiB (2%)
      Language : English
      Encoded date : UTC 2015-01-26 13:15:34
      Tagged date : UTC 2015-01-26 13:15:34

Viewing 2 reply threads
  • The forum ‘Editing’ is closed to new topics and replies.

Best Products

Best After Effects and motion graphics template sites – 2021

You have the tools needed to create stunning motion graphics, but do you have the time? If not, using motion graphics templates can be a great way to add polish to a production without blowing your deadline.
homicide-bootstrap

Giveaway

THE ESSENTIAL VLOGGING TOOLKIT

Given away to one lucky winner

Competition is open worldwide

ENTER TO WIN

Need help making a stellar first video?

FREE

Download our free eBook with 8 tips to get on the right track and create a video that you can be proud of.